Resident Evil: La maldición (2012) [DVDRip][Latino]

Descargar Resident Evil: La maldición (2012) [DVDRip][Latino]

Resident Evil: La maldición (2012) [DVDRip][Latino] DVDRip Español Latino, descargar en HDRip Online, Mega, Torrent






TÍTULO ORIGINAL: biohazard DAMNATION (Resident Evil: Damnation)
AÑO: 2012
GENERO: Animación. Terror. Acción | Zombis. Secuela. Videojuego. 3-D
REPARTO: Animation
SINOPSIS: El agente especial de Estados Unidos, Leon S. Kennedy, se filtra en un pequeño país de Europa del Este para comprobar rumores de que armas Bio Orgánicas están siendo utilizadas en la guerra. Inmediatamente después de su filtración, recibe órdenes del gobierno de Estados Unidos de abandonar el lugar. Decidido a descubrir la verdad, hace caso omiso de la orden y entra en el campo de batalla para poner fin a la cadena de tragedias causadas por dichas armas. Secuela del film de animación digital «Resident Evil Degeneration».







Código:
Resident.Maldicion.DVDRip.fanatico.avi
Format : AVI
Format/Info : Audio Video Interleave
File size : 1.64 GiB
Duration : 1h 40mn
Overall bit rate : 2 341 Kbps
Genre : Animation/Action/ Horror/Sci-F
Writing application : VirtualDubMod 1.5.10.2 (build 2540/release)
Writing library : VirtualDubMod build 2540/release

Video
ID : 0
Format : MPEG-4 Visual
Format profile : Advanced [email protected]
Format settings, BVOP : 2
Format settings, QPel : No
Format settings, GMC : No warppoints
Format settings, Matrix : Custom
Codec ID : XVID
Codec ID/Hint : XviD
Duration : 1h 40mn
Bit rate : 1 692 Kbps
Width : 720 pixels
Height : 400 pixels
Display aspect ratio : 16:9
Frame rate : 23.976 fps
Color space : YUV
Chroma subsampling : 4:2:0
Bit depth : 8 bits
Scan type : Progressive
Compression mode : Lossy
Bits/(Pixel*Frame) : 0.245
Stream size : 1.18 GiB (72%)
Writing library : XviD 1.2.1 (UTC 2008-12-04)

Audio
ID : 1
Format : AC-3
Format/Info : Audio Coding 3
Mode extension : CM (complete main)
Codec ID : 2000
Duration : 1h 40mn
Bit rate mode : Constant
Bit rate : 640 Kbps
Channel(s) : 6 channels
Channel positions : Front: L C R, Side: L R, LFE
Sampling rate : 48.0 KHz
Bit depth : 16 bits
Compression mode : Lossy
Stream size : 458 MiB (27%)
Alignment : Split accross interleaves
Interleave, duration : 42 ms (1.00 video frame)
Interleave, preload duration : 500 ms









Código:
http://www.descarga.com/g6dztrby9xjh/Resident.Maldicion.DVDRip.fanatico.avi.part1.rar.html
http://www.descarga.com/237vjprzy/Resident.Maldicion.DVDRip.fanatico.avi.part4.rar.html
http://www.descarga.com/hmg4k7t8dpc2/Resident.Maldicion.DVDRip.fanatico.avi.part3.rar.html
http://www.descarga.com/yvfd8nzmjh/Resident.Maldicion.DVDRip.fanatico.avi.part2.rar.html
Resident Evil: La maldición (2012) [DVDRip][Latino] DVDRip Español Latino, descargar en HDRip Online, Mega, Torrent

Descargar Resident Evil: La maldición (2012) [DVDRip][Latino]






Debes estar registrado para publicar comentarios.