Prince of Persia, las Arenas del Tiempo [2010][BD-Rip 1080p AVC-Intra MKV][DTS/AC3 Esp/Ing]

Descargar Prince of Persia, las Arenas del Tiempo [2010][BD-Rip 1080p AVC-Intra MKV][DTS/AC3 Esp/Ing]

Prince of Persia, las Arenas del Tiempo [2010][BD-Rip 1080p AVC-Intra MKV][DTS/AC3 Esp/Ing] DVDRip Español Latino, descargar en HDRip Online, Mega, Torrent

Prince of Persia, las Arenas del Tiempo:



Título: Prince of Persia, las Arenas del Tiempo
Título Original: Prince of Persia, the Sands of Time
País: EEUU
Duración: 115 min
Año: 2010
Género: Aventuras
Servidor: UploadStation, Filejungle y Fileserve
Codec: AVC-Intra 100
Audio: Español Digital Theater System (DTS 1536 kbps)
Audio: Inglés Dolby Digital 5.1 (AC3 448 kbps)
Subtitulos: Inglés y Español
Resolución: 1920×1080
Tamaño: 7.47 GB
Formato: MKV (.mkv)
Nº de Partes por Fileserve, Filejungle y UploadStation: 18 + 8 (458.7MB)

Media Info:



Spoiler


General
Format : Matroska
Format version : Version 2
File size : 7.47 GiB
Duration : 1h 55mn
Overall bit rate : 9 231 Kbps
Movie name : Prince of Persia, las Arenas del Tiempo by Ricjosep
Encoded date : UTC 2011-09-26 21:11:51
Writing application : mkvmerge v4.8.0 (‘I Got The…’) creado el May 24 2011 03:12:58
Writing library : libebml v1.2.0 + libmatroska v1.1.0

Video
ID : 1
Format : AVC
Format/Info : Advanced Video Codec
Format profile : [email protected]
Format settings, CABAC : Yes
Format settings, ReFrames : 3 frames
Muxing mode : Header stripping
Codec ID : V_MPEG4/ISO/AVC
Duration : 1h 55mn
Bit rate mode : Variable
Bit rate : 7 090 Kbps
Maximum bit rate : 35.0 Mbps
Width : 1 920 pixels
Height : 1 080 pixels
Display aspect ratio : 16:9
Frame rate : 23.976 fps
Standard : NTSC
Color space : YUV
Chroma subsampling : 4:2:0
Bit depth : 8 bits
Scan type : Progressive
Bits/(Pixel*Frame) : 0.143
Stream size : 5.74 GiB (77%)
Color primaries : BT.709-5, BT.1361, IEC 61966-2-4, SMPTE RP177
Transfer characteristics : BT.709-5, BT.1361
Matrix coefficients : BT.709-5, BT.1361, IEC 61966-2-4 709, SMPTE RP177

Audio #1
ID : 2
Format : DTS
Format/Info : Digital Theater Systems
Muxing mode : Header stripping
Codec ID : A_DTS
Duration : 1h 55mn
Bit rate mode : Constant
Bit rate : 1 510 Kbps
Channel(s) : 6 channels
Channel positions : Front: L C R, Side: L R, LFE
Sampling rate : 48.0 KHz
Bit depth : 24 bits
Compression mode : Lossy
Stream size : 1.22 GiB (16%)
Title : Latino
Language : Spanish

Audio #2
ID : 3
Format : AC-3
Format/Info : Audio Coding 3
Mode extension : CM (complete main)
Muxing mode : Header stripping
Codec ID : A_AC3
Duration : 1h 55mn
Bit rate mode : Constant
Bit rate : 448 Kbps
Channel(s) : 6 channels
Channel positions : Front: L C R, Side: L R, LFE
Sampling rate : 48.0 KHz
Bit depth : 16 bits
Compression mode : Lossy
Stream size : 371 MiB (5%)
Title : Ingles
Language : English

Text #1
ID : 4
Format : PGS
Muxing mode : zlib
Codec ID : S_HDMV/PGS
Codec ID/Info : The same subtitle format used on BDs/HD-DVDs
Title : Español Forzado
Language : Spanish

Text #2
ID : 5
Format : PGS
Muxing mode : zlib
Codec ID : S_HDMV/PGS
Codec ID/Info : The same subtitle format used on BDs/HD-DVDs
Title : Español
Language : Spanish

Text #3
ID : 6
Format : PGS
Muxing mode : zlib
Codec ID : S_HDMV/PGS
Codec ID/Info : The same subtitle format used on BDs/HD-DVDs
Title : Ingles
Language : English

Text #4
ID : 7
Format : PGS
Muxing mode : zlib
Codec ID : S_HDMV/PGS
Codec ID/Info : The same subtitle format used on BDs/HD-DVDs
Title : Ingles
Language : English


Sinopsis:

Ambientada en la Persia medieval, “Prince of Persia” narra la historia de uno de los príncipes de Persia (Jake Gyllenhaal) que une sus fuerzas con la princesa de un reino vecino (Gemma Arterton) con el fin de proteger el secreto de las Arenas del Tiempo y detener al asesino del rey de Persia, el cual pretende retroceder en el tiempo para cambiar una serie de acontecimientos… Adaptación al largometraje de la saga de videojuegos del mismo nombre.

Enlaces:





http://link2.cuevana5.com/decode.php?h=aHR0cDovL25jcnlwdC5pbi9mb2xkZXItUkZ3alVjQUU=

Muestras:



Prince of Persia, las Arenas del Tiempo [2010][BD-Rip 1080p AVC-Intra MKV][DTS/AC3 Esp/Ing] DVDRip Español Latino, descargar en HDRip Online, Mega, Torrent

Descargar Prince of Persia, las Arenas del Tiempo [2010][BD-Rip 1080p AVC-Intra MKV][DTS/AC3 Esp/Ing]






Debes estar registrado para publicar comentarios.